Search

Next 2007 720p Esub BluRay Dual Audio English Hindi GOPISAHI

Format                         : Matroska
Format version                 : Version 4 / Version 2
File size                      : 727 MiB
Duration                       : 1 h 36 min
Overall bit rate               : 1 056 kb/s
Movie name                     : Next 2007

Video
Format                         : AVC
Codec ID                       : V_MPEG4/ISO/AVC
Duration                       : 1 h 36 min
Bit rate                       : 919 kb/s
Width                          : 1 280 pixels
Height                         : 528 pixels
Display aspect ratio           : 2.40:1
Frame rate mode                : Constant
Frame rate                     : 23.976 (24000/1001) FPS
Stream size                    : 632 MiB (87%)
Writing library                : x264

Audio #1
Format                         : AAC
Duration                       : 1 h 36 min
Bit rate                       : 85.1 kb/s
Channel(s)                     : 6 channels
Channel positions              : Front: L C R, Side: L R, LFE
Sampling rate                  : 44.1 kHz
Frame rate                     : 43.066 FPS (1024 SPF)
Stream size                    : 58.5 MiB (8%)
Language                       : English

Audio #2
Format                         : AAC
Duration                       : 1 h 36 min
Bit rate                       : 50.3 kb/s
Channel(s)                     : 6 channels
Channel positions              : Front: L C R, Side: L R, LFE
Sampling rate                  : 44.1 kHz
Frame rate                     : 43.066 FPS (1024 SPF)
Stream size                    : 34.6 MiB (5%)
Language                       : Hindi

Text
Language                       : English
 
 

Post a Comment

0 Comments