Search

Next Avengers Heroes Of Tomorrow 2008 720p Esub BluRay Triple Audio English Hindi Portuguese GOPISAHI

Format                         : Matroska
Format version                 : Version 4 / Version 2
File size                      : 546 MiB
Duration                       : 1 h 18 min
Overall bit rate               : 978 kb/s
Movie name                     : Next Avengers Heroes Of Tomorrow 2008 GOPISAHI
Video
Format                         : AVC
Codec ID                       : V_MPEG4/ISO/AVC
Duration                       : 1 h 18 min
Bit rate                       : 699 kb/s
Width                          : 1 280 pixels
Height                         : 720 pixels
Display aspect ratio           : 16:9
Frame rate mode                : Constant
Frame rate                     : 23.976 (23976/1000) FPS
Stream size                    : 390 MiB (72%)
Writing library                : x264 core 148 r2708 86b7198
Audio #1
Format                         : AAC
Duration                       : 1 h 18 min
Bit rate                       : 90.3 kb/s
Channel(s)                     : 6 channels
Channel positions              : Front: L C R, Side: L R, LFE
Sampling rate                  : 44.1 kHz
Frame rate                     : 43.066 FPS (1024 SPF)
Stream size                    : 50.4 MiB (9%)
Language                       : Portuguese
Audio #2
Format                         : AAC
Duration                       : 1 h 18 min
Bit rate                       : 90.8 kb/s
Channel(s)                     : 6 channels
Channel positions              : Front: L C R, Side: L R, LFE
Sampling rate                  : 44.1 kHz
Frame rate                     : 43.066 FPS (1024 SPF)
Stream size                    : 50.7 MiB (9%)
Language                       : English
Audio #3
Format                         : AAC
Duration                       : 1 h 13 min
Bit rate                       : 99.5 kb/s
Channel(s)                     : 6 channels
Channel positions              : Front: L C R, Side: L R, LFE
Sampling rate                  : 44.1 kHz
Frame rate                     : 43.066 FPS (1024 SPF)
Stream size                    : 52.3 MiB (10%)
Language                       : Hindi
Text
Language                       : English
 
 

Post a Comment

1 Comments