Search

Night of the Demons 1997 DVDRip M Audio English Hindi Telugu Tamil GOPISAHI

General
Unique ID                      : 237394004753499149473228524058446332321 (0xB2986C17BDFFCA42AE8E54BAB43701A1)
Complete name                  : D:\Movies\DUB\YEARS\1997\Night of the Demons 1997 DVDRip M Audio English Hindi Telugu Tamil GOPISAHI.mkv
Format                         : Matroska
Format version                 : Version 4 / Version 2
File size                      : 449 MiB
Duration                       : 1 h 21 min
Overall bit rate               : 767 kb/s
Movie name                     : Night of the Demons 3 1997 GOPISAHI
Encoded date                   : UTC 2017-11-02 09:10:37
Writing application            : mkvmerge v13.0.0 ('The Juggler') 64bit
Writing library                : libebml v1.3.4 + libmatroska v1.4.5
Video
ID                             : 1
Format                         : AVC
Format/Info                    : Advanced Video Codec
Format profile                 : [email protected]
Format settings, CABAC         : Yes
Format settings, RefFrames     : 8 frames
Codec ID                       : V_MPEG4/ISO/AVC
Duration                       : 1 h 21 min
Bit rate                       : 400 kb/s
Width                          : 1 280 pixels
Height                         : 966 pixels
Display aspect ratio           : 4:3
Frame rate mode                : Constant
Frame rate                     : 25.000 FPS
Color space                    : YUV
Chroma subsampling             : 4:2:0
Bit depth                      : 8 bits
Scan type                      : Progressive
Bits/(Pixel*Frame)             : 0.013
Stream size                    : 234 MiB (52%)
Title                          : GOPISAHI
Writing library                : x264 core 148 r2744 b97ae06
Encoding settings              : cabac=1 / ref=8 / deblock=1:-1:-1 / analyse=0x3:0x133 / me=umh / subme=9 / psy=1 / psy_rd=1.00:0.15 / mixed_ref=1 / me_range=16 / chroma_me=1 / trellis=2 / 8x8dct=1 / cqm=0 / deadzone=21,11 / fast_pskip=1 / chroma_qp_offset=-3 / threads=12 / lookahead_threads=1 / sliced_threads=0 / nr=0 / decimate=1 / interlaced=0 / bluray_compat=0 / constrained_intra=0 / bframes=3 / b_pyramid=2 / b_adapt=2 / b_bias=0 / direct=3 / weightb=1 / open_gop=0 / weightp=2 / keyint=250 / keyint_min=25 / scenecut=40 / intra_refresh=0 / rc_lookahead=60 / rc=2pass / mbtree=1 / bitrate=400 / ratetol=1.0 / qcomp=0.60 / qpmin=0 / qpmax=69 / qpstep=4 / cplxblur=20.0 / qblur=0.5 / ip_ratio=1.40 / aq=1:1.00
Language                       : English
Default                        : Yes
Forced                         : No
Audio #1
ID                             : 2
Format                         : AAC
Format/Info                    : Advanced Audio Codec
Format profile                 : LC
Codec ID                       : A_AAC
Duration                       : 1 h 21 min
Bit rate                       : 96.0 kb/s
Channel(s)                     : 6 channels
Channel positions              : Front: L C R, Side: L R, LFE
Sampling rate                  : 44.1 kHz
Frame rate                     : 43.066 FPS (1024 SPF)
Compression mode               : Lossy
Stream size                    : 55.2 MiB (12%)
Title                          : GOPISAHI
Language                       : Tamil
Default                        : No
Forced                         : No
Audio #2
ID                             : 3
Format                         : AAC
Format/Info                    : Advanced Audio Codec
Format profile                 : LC
Codec ID                       : A_AAC
Duration                       : 1 h 21 min
Bit rate                       : 93.1 kb/s
Channel(s)                     : 6 channels
Channel positions              : Front: L C R, Side: L R, LFE
Sampling rate                  : 44.1 kHz
Frame rate                     : 43.066 FPS (1024 SPF)
Compression mode               : Lossy
Stream size                    : 54.5 MiB (12%)
Title                          : GOPISAHI
Language                       : Telugu
Default                        : No
Forced                         : No
Audio #3
ID                             : 4
Format                         : AAC
Format/Info                    : Advanced Audio Codec
Format profile                 : LC
Codec ID                       : A_AAC
Duration                       : 1 h 21 min
Bit rate                       : 92.7 kb/s
Channel(s)                     : 6 channels
Channel positions              : Front: L C R, Side: L R, LFE
Sampling rate                  : 44.1 kHz
Frame rate                     : 43.066 FPS (1024 SPF)
Compression mode               : Lossy
Delay relative to video        : 22 ms
Stream size                    : 54.3 MiB (12%)
Title                          : GOPISAHI
Language                       : English
Default                        : Yes
Forced                         : No
Audio #4
ID                             : 5
Format                         : AAC
Format/Info                    : Advanced Audio Codec
Format profile                 : LC
Codec ID                       : A_AAC
Duration                       : 1 h 21 min
Bit rate                       : 82.7 kb/s
Channel(s)                     : 6 channels
Channel positions              : Front: L C R, Side: L R, LFE
Sampling rate                  : 44.1 kHz
Frame rate                     : 43.066 FPS (1024 SPF)
Compression mode               : Lossy
Stream size                    : 48.4 MiB (11%)
Title                          : GOPISAHI
Language                       : Hindi
Default                        : No
Forced                         : No



Post a Comment

0 Comments