Search

Notting Hill 1999 720p Esub BluRay Dual Audio English Hindi GOPISAHI


Title: Notting Hill
Year: 1999
Runtime: 124 minutes
Votes: 227717
Rating: 7.1/10
Language: English, Spanish
Country: UK, USA
All Genres: Comedy, Drama, Romance
Plot Outline: The life of a simple bookshop owner changes when he meets the most famous film star in the world.
Tagline: Can the most famous film star in the world fall for just an ordinary guy?
Director: Roger Michell
Writing By: Richard Curtis,
Produced By: Tim Bevan,Richard Curtis,Eric Fellner,Duncan Kenworthy,Mary Richards,
Music: Trevor Jones
Cast:
Julia Roberts as Anna Scott 
Hugh Grant as William Thacker 
Richard McCabe as Tony 
Rhys Ifans as Spike 
James Dreyfus as Martin 
Dylan Moran as Rufus the Thief 
Roger Frost as Annoying Customer 
Henry Goodman as Ritz Concierge 
Julian Rhind-Tutt as 'Time Out' Journalist 
Lorelei King as Anna's Publicist 
Trailers:
Notting Hill

iMDB
Format                         : Matroska
Format version                 : Version 4 / Version 2
File size                      : 510 MiB
Duration                       : 2 h 4 min
Overall bit rate               : 574 kb/s
Movie name                     : Notting Hill 1999 GOPISAHI

Video
ID                             : 3
Format                         : HEVC
Format/Info                    : High Efficiency Video Coding
Format profile                 : [email protected]@Main
Codec ID                       : V_MPEGH/ISO/HEVC
Duration                       : 2 h 3 min
Bit rate                       : 401 kb/s
Width                          : 1 280 pixels
Height                         : 544 pixels
Display aspect ratio           : 2.35:1
Frame rate mode                : Constant
Frame rate                     : 23.976 (24000/1001) FPS
Stream size                    : 355 MiB (70%)
Title                          : GOPISAHI
Writing library                : x265 2.6:[Windows][GCC 7.1.0][64 bit] 8bit+10bit+12bit

Audio #1
Format                         : AAC
Duration                       : 2 h 3 min
Bit rate                       : 82.6 kb/s
Channel(s)                     : 6 channels
Channel positions              : Front: L C R, Side: L R, LFE
Sampling rate                  : 44.1 kHz
Frame rate                     : 43.066 FPS (1024 SPF)
Compression mode               : Lossy
Stream size                    : 73.2 MiB (14%)
Title                          : GOPISAHI
Language                       : English

Audio #2
Format                         : AAC
Duration                       : 2 h 3 min
Bit rate                       : 88.5 kb/s
Channel(s)                     : 6 channels
Channel positions              : Front: L C R, Side: L R, LFE
Sampling rate                  : 44.1 kHz
Frame rate                     : 43.066 FPS (1024 SPF)
Stream size                    : 78.5 MiB (15%)
Title                          : GOPISAHI
Language                       : Hindi

Text
 
 

Post a Comment

0 Comments