Search

Once Upon a Time in China II 1992 720p Esub BluRay Dual Audio English Hindi GOPISAHI

 Format                         : Matroska
Format version                 : Version 4 / Version 2
File size                      : 625 MiB
Duration                       : 1 h 52 min
Overall bit rate               : 779 kb/s
Movie name                     : Once Upon a Time in China II 1992

Video
Format                         : AVC
Codec ID                       : V_MPEG4/ISO/AVC
Duration                       : 1 h 52 min
Bit rate                       : 600 kb/s
Width                          : 1 280 pixels
Height                         : 548 pixels
Display aspect ratio           : 2.35:1
Frame rate mode                : Constant
Frame rate                     : 23.976 (24000/1001) FPS
Stream size                    : 481 MiB (77%)
Title                          : GOPISAH
Writing library                : x264 core 152 r2851 ba24899
Language                       : Chinese

Audio #1
Format                         : AAC
Duration                       : 1 h 52 min
Bit rate                       : 84.0 kb/s
Channel(s)                     : 6 channels
Channel positions              : Front: L C R, Side: L R, LFE
Sampling rate                  : 44.1 kHz
Frame rate                     : 43.066 FPS (1024 SPF)
Stream size                    : 67.4 MiB (11%)
Language                       : Chinese

Audio #2
Format                         : AAC
Duration                       : 1 h 52 min
Bit rate                       : 92.0 kb/s
Channel(s)                     : 6 channels
Channel positions              : Front: L C R, Side: L R, LFE
Sampling rate                  : 44.1 kHz
Frame rate                     : 43.066 FPS (1024 SPF)
Stream size                    : 73.9 MiB (12%)
Language                       : Hindi

Text
Language                       : English
 
 
 

Post a Comment

0 Comments