Search

Orphan 2009 720p Esub BluRay Dual Audio English Hindi GOPISAHI

Format                         : Matroska
Format version                 : Version 4 / Version 2
File size                      : 818 MiB
Duration                       : 2 h 3 min
Overall bit rate               : 930 kb/s
Movie name                     : Orphan 2009

Video
Format                         : AVC
Codec ID                       : V_MPEG4/ISO/AVC
Duration                       : 2 h 2 min
Bit rate                       : 758 kb/s
Width                          : 1 280 pixels
Height                         : 720 pixels
Display aspect ratio           : 16:9
Frame rate mode                : Constant
Frame rate                     : 23.976 (24000/1001) FPS
Stream size                    : 666 MiB (81%)
Writing library                : x264 core 120 r2164 da19765

Audio #1
Format                         : AAC
Duration                       : 2 h 3 min
Bit rate                       : 82.2 kb/s
Channel(s)                     : 6 channels
Channel positions              : Front: L C R, Side: L R, LFE
Sampling rate                  : 44.1 kHz
Frame rate                     : 43.066 FPS (1024 SPF)
Stream size                    : 72.4 MiB (9%)
Language                       : English

Audio #2
Format                         : AAC
Duration                       : 2 h 2 min
Bit rate                       : 87
.7 kb/s
Channel(s)                     : 6 channels
Channel positions              : Front: L C R, Side: L R, LFE
Sampling rate                  : 44.1 kHz
Frame rate                     : 43.066 FPS (1024 SPF)
Stream size                    : 77.1 MiB (9%)
Language                       : Hindi

Text
Language                       : English
 
 

Post a Comment

0 Comments