Search

Out Of The Furnace 2013 720p Esub BluRay Dual Audio English Hindi GOPISAHI

Title: Out of the Furnace
Year: 2013
Runtime: 116 minutes
Votes: 89610
Rating: 6.8/10
Language: English
Country: UK, USA
All Genres: Crime, Drama, Thriller
Plot Outline: When Rodney Baze mysteriously disappears and law enforcement doesn't follow through fast enough, his older brother, Russell, takes matters into his own hands to find justice.
Tagline: Sometimes your battles choose you.
Director: Scott Cooper
Writing By: Brad Ingelsby,Scott Cooper
Produced By: Riza Aziz,Robbie Brenner,Ron Burkle,Jason Colbeck,Michael Costigan,Jennifer Davisson,Leonardo DiCaprio,Danny Dimbort,Joe Gatta,Ken Halsband,Michael Ireland,Ryan Kavanaugh,Jamie Marshall,Joey McFarland,Christian Mercuri,Dana Reaves Bolla,John Ridley,Ridley Scott,Adam Simpson-Marshall,Tucker Tooley,Jeff G. Waxman,Brooklyn Weaver,Jason Beckman,Jason Colodne,Tony Scott
Music: Dickon Hinchliffe 
Plot:
Russell and his younger brother Rodney live in the economically-depressed Rust Belt, and have always dreamed of escaping and finding better lives. But when a cruel twist of fate lands Russell in prison, his brother becomes involved with one of the most violent and ruthless crime rings in the Northeast - a mistake that will cost him everything. Once released, Russell must choose between his own freedom, or risk it all to seek justice for his brother.
Written by Production
When Rodney Baze mysteriously disappears and law enforcement doesn't follow through fast enough, his older brother, Russell, takes matters into his own hands to find justice.
Written by Relativity Media 
Cast:
Woody Harrelson as Harlan DeGroat 
Dendrie Taylor as DeGroat's Date 
Carl Ciarfalio as Man at Drive In 
Nancy Mosser as Woman at Drive In 
Christian Bale as Russell Baze 
Casey Affleck as Rodney Baze Jr. 
Zoe Saldana as Lena Taylor 
Sam Shepard as Gerald 'Red' Baze 
Bingo O'Malley as Rodney Baze Sr. 
Tom Bower as Dan Dugan 
Trailers:
UK Trailer
Trailer #2
Trailer #1

Format                         : Matroska
Format version                 : Version 4 / Version 2
File size                      : 644 MiB
Duration                       : 1 h 56 min
Overall bit rate               : 775 kb/s
Movie name                     : Out Of The Furnace 2013 GOPISAHI

Video
Format                         : AVC
Codec ID                       : V_MPEG4/ISO/AVC
Duration                       : 1 h 56 min
Bit rate                       : 600 kb/s
Width                          : 1 280 pixels
Height                         : 534 pixels
Display aspect ratio           : 2.40:1
Frame rate mode                : Constant
Frame rate                     : 23.976 (24000/1001) FPS
Stream size                    : 498 MiB (77%)
Title                          : GOPISAHI
Writing library                : x264 core 155 r2893 b00bcaf

Audio #1
Format                         : AAC
Duration                       : 1 h 56 min
Bit rate                       : 86.1 kb/s
Channel(s)                     : 6 channels
Channel positions              : Front: L C R, Side: L R, LFE
Sampling rate                  : 44.1 kHz
Frame rate                     : 43.066 FPS (1024 SPF)
Compression mode               : Lossy
Stream size                    : 71.5 MiB (11%)
Title                          : GOPISAHI
Language                       : English

Audio #2
Format                         : AAC
Duration                       : 1 h 56 min
Bit rate                       : 86.6 kb/s
Channel(s)                     : 6 channels
Channel positions              : Front: L C R, Side: L R, LFE
Sampling rate                  : 44.1 kHz
Frame rate                     : 43.066 FPS (1024 SPF)
Compression mode               : Lossy
Stream size                    : 71.9 MiB (11%)
Title                          : GOPISAHI
Language                       : Hindi

Text
Language                       : English
 
 

Post a Comment

0 Comments