Search

Passengers 2016 720p Esub BluRay 5.1 Dual Audio English Hindi WWW.GOPISAHI.PW



Format                         : Matroska
Format version                 : Version 4 / Version 2
File size                      : 537 MiB
Duration                       : 1 h 56 min
Overall bit rate               : 646 kb/s
Movie name                     : Passengers 2016 [url=http://]WWW.GOPISAHI.PW[/url]

Video
ID                             : 1
Format                         : HEVC
Format/Info                    : High Efficiency Video Coding
Format profile                 : [email protected]@Main
Codec ID                       : V_MPEGH/ISO/HEVC
Duration                       : 1 h 56 min
Bit rate                       : 500 kb/s
Width                          : 1 280 pixels
Height                         : 536 pixels
Display aspect ratio           : 2.40:1
Frame rate mode                : Constant
Frame rate                     : 23.976 (24000/1001) FPS
Color space                    : YUV
Chroma subsampling             : 4:2:0
Bit depth                      : 8 bits
Bits/(Pixel*Frame)             : 0.030
Stream size                    : 416 MiB (77%)
Title                          : [url=http://]WWW.GOPISAHI.PW[/url]
Writing library                : x265 2.1:[Windows][GCC 5.3.1][64 bit] 8bit

Audio #1
Format                         : AAC
Duration                       : 1 h 56 min
Bit rate                       : 84.9 kb/s
Channel(s)                     : 6 channels
Channel positions              : Front: L C R, Side: L R, LFE
Sampling rate                  : 44.1 kHz
Frame rate                     : 43.066 FPS (1024 SPF)
Compression mode               : Lossy
Stream size                    : 70.6 MiB (13%)
Title                          : [url=http://]WWW.GOPISAHI.PW[/url]
Language                       : English

Audio #2
Format                         : AAC
Duration                       : 1 h 56 min
Bit rate                       : 58.0 kb/s
Channel(s)                     : 6 channels
Channel positions              : Front: L C R, Side: L R, LFE
Sampling rate                  : 44.1 kHz
Frame rate                     : 43.066 FPS (1024 SPF)
Compression mode               : Lossy
Stream size                    : 48.2 MiB (9%)
Title                          : [url=http://]WWW.GOPISAHI.PW[/url]
Language                       : Hindi