Search

Paul Blart Mall Cop 2009 720p Esub BluRay Dual Audio English Hindi GOPISAHI

Video
Format                         : AVC
Codec ID                       : V_MPEG4/ISO/AVC
Duration                       : 1 h 31 min
Bit rate                       : 822 kb/s
Width                          : 1 280 pixels
Height                         : 688 pixels
Display aspect ratio           : 1.85:1
Frame rate mode                : Constant
Frame rate                     : 23.976 (24000/1001) FPS
Stream size                    : 535 MiB (82%)
Title                          : GOPI SAHI
Writing library                : x264 core 125 r2200 999b753
Audio #1
Format                         : AAC
Duration                       : 1 h 31 min
Bit rate                       : 86.4 kb/s
Channel(s)                     : 6 channels
Channel positions              : Front: L C R, Side: L R, LFE
Sampling rate                  : 44.1 kHz
Frame rate                     : 43.066 FPS (1024 SPF)
Stream size                    : 56.3 MiB (9%)
Language                       : English
Audio #2
Format                         : AAC
Duration                       : 1 h 31 min
Bit rate                       : 87.4 kb/s
Channel(s)                     : 6 channels
Channel positions              : Front: L C R, Side: L R, LFE
Sampling rate                  : 44.1 kHz
Frame rate                     : 43.066 FPS (1024 SPF)
Stream size                    : 57.0 MiB (9%)
Title                          : GOPISAHI
Language                       : Hindi
Text
Duration                       : 1 h 25 min
Stream size                    : 34.2 KiB (0%)
Language                       : English
 
 

Post a Comment

0 Comments