Search

Piglets Big Movie 2003 Esub DvD Dual Audio English Hindi GOPISAHI


General
Format                         : Matroska
Format version                 : Version 4 / Version 2
File size                      : 581 MiB
Duration                       : 1 h 14 min
Overall bit rate               : 1 085 kb/s
Movie name                     : Piglets Big Movie 2003

Video 1
Format                         : AVC
Codec ID                       : V_MPEG4/ISO/AVC
Duration                       : 1 h 14 min
Bit rate                       : 899 kb/s
Width                          : 720 pixels
Height                         : 400 pixels
Display aspect ratio           : 16:9
Frame rate mode                : Constant
Frame rate                     : 23.976 (24000/1001) FPS
Stream size                    : 481 MiB (83%)
Writing library                : x264 core 148 r2708 86b7198

Audio #1
Format                         : AAC
Duration                       : 1 h 14 min
Bit rate                       : 90.6 kb/s
Channel(s)                     : 6 channels
Channel positions              : Front: L C R, Side: L R, LFE
Sampling rate                  : 44.1 kHz
Frame rate                     : 43.066 FPS (1024 SPF)
Compression mode               : Lossy
Stream size                    : 48.5 MiB (8%)
Language                       : English

Audio #2
Format                         : AAC
Duration                       : 1 h 14 min
Bit rate                       : 92.7 kb/s
Channel(s)                     : 6 channels
Channel positions              : Front: L C R, Side: L R, LFE
Sampling rate                  : 44.1 kHz
Frame rate                     : 43.066 FPS (1024 SPF)
Stream size                    : 49.6 MiB (9%)
Language                       : Hindi

Text
Language                       : English
 



Post a Comment

0 Comments