Search

Prom Night 2008 720p x264 Esub BluRay Dual Audio English Hindi GOPISAHI

https://4.bp.blogspot.com/-QjvGbGKDzaI/WsBC47eSshI/AAAAAAAAVU0/MRQBCjyC6Vom6P_GEsE3n10D6MIJB9DewCLcBGAs/s1600/MV5BMTI0NzcyMjAxOF5BMl5BanBnXkFtZTcwMjEwNDc1MQ%2540%2540._V1_.jpg
Format                         : Matroska
Format version                 : Version 4 / Version 2
File size                      : 426 MiB
Duration                       : 1 h 29 min
Overall bit rate               : 668 kb/s
Movie name                     : Prom Night 2008 GOPISAHI

Video
Format                         : AVC
Codec ID                       : V_MPEG4/ISO/AVC
Duration                       : 1 h 29 min
Bit rate                       : 500 kb/s
Width                          : 1 280 pixels
Height                         : 532 pixels
Display aspect ratio           : 2.40:1
Frame rate mode                : Constan
Frame rate                     : 23.976 (24000/1001) FPS
Bits/(Pixel*Frame)             : 0.031
Stream size                    : 319 MiB (75%)
Title                          : GOPISAHI
Writing library                : x264 core 155 r2893 b00bcaf

Audio #1
Format                         : AAC
Duration                       : 1 h 29 min
Bit rate                       : 85.3 kb/s
Channel(s)                     : 6 channels
Channel positions              : Front: L C R, Side: L R, LFE
Sampling rate                  : 44.1 kHz
Frame rate                     : 43.066 FPS (1024 SPF)
Compression mode               : Lossy
Stream size                    : 54.4 MiB (13%)
Language                       : English

Audio #2
Format                         : AAC
Duration                       : 1 h 29 min
Bit rate                       : 79.9 kb/s
Channel(s)                     : 6 channels
Channel positions              : Front: L C R, Side: L R, LFE
Sampling rate                  : 44.1 kHz
Frame rate                     : 43.066 FPS (1024 SPF)
Compression mode               : Lossy
Stream size                    : 51.0 MiB (12%)
Title                          : GOPISAHI
Language                       : Hindi

Text
Language                       : English
 

Post a Comment

0 Comments