Search

Public Enemies 2009 720p Esub BluRay Dual Audio English Hindi GOPISAHI

Format                         : Matroska
Format version                 : Version 4 / Version 2
File size                      : 1.06 GiB
Duration                       : 2 h 20 min
Overall bit rate               : 1 082 kb/s
Movie name                     : Public Enemies 2009

Video
Format                         : AVC
Codec ID                       : V_MPEG4/ISO/AVC
Duration                       : 2 h 20 min
Bit rate                       : 920 kb/s
Width                          : 1 280 pixels
Height                         : 528 pixels
Display aspect ratio           : 2.40:1
Frame rate mode                : Variable
Frame rate                     : 23.976 FPS
Stream size                    : 908 MiB (84%)
Writing library                : x264 core 120

Audio #1
Format                         : AAC
Duration                       : 2 h 20 min
Bit rate                       : 84.0 kb/s
Channel(s)                     : 6 channels
Channel positions              : Front: L C R, Side: L R, LFE
Sampling rate                  : 44.1 kHz
Frame rate                     : 43.066 FPS (1024 SPF)
Stream size                    : 84.2 MiB (8%)
Language                       : English

Audio #2
Format                         : AAC
Duration                       : 2 h 20 min
Bit rate                       : 87.9 kb/s
Channel(s)                     : 6 channels
Channel positions              : Front: L C R, Side: L R, LFE
Sampling rate                  : 44.1 kHz
Frame rate                     : 43.066 FPS (1024 SPF)
Stream size                    : 88.1 MiB (8%)
Language                       : Hindi

Text
Language                       : English
 
 

Post a Comment

0 Comments