Search

Punisher War Zone 2008 720p Esub BluRay Dual Audio English Hindi GOPISAHI



Format                         : Matroska
Format version                 : Version 4 / Version 2
File size                      : 753 MiB
Duration                       : 1 h 42 min
Overall bit rate               : 1 025 kb/s
Movie name                     : Punisher War Zone 2008

Video
Format                         : AVC
Codec ID                       : V_MPEG4/ISO/AVC
Duration                       : 1 h 42 min
Bit rate                       : 864 kb/s
Width                          : 1 280 pixels
Height                         : 576 pixels
Display aspect ratio           : 2.222
Frame rate mode                : Constant
Frame rate                     : 23.976 (23976/1000) FPS
Stream size                    : 631 MiB (84%)
Writing library                : x264 core 129

Audio #1
Format                         : AAC
Duration                       : 1 h 36 min
Bit rate                       : 83.3 kb/s
Channel(s)                     : 6 channels
Channel positions              : Front: L C R, Side: L R, LFE
Sampling rate                  : 44.1 kHz
Frame rate                     : 43.066 FPS (1024 SPF)
Stream size                    : 57.3 MiB (8%)
Language                       : Hindi

Audio #2
Format                         : AAC
Duration                       : 1 h 42 min
Bit rate                       : 85.6 kb/s
Channel(s)                     : 6 channels
Channel positions              : Front: L C R, Side: L R, LFE
Sampling rate                  : 44.1 kHz
Frame rate                     : 43.066 FPS (1024 SPF)
Stream size                    : 62.9 MiB (8%)
Language                       : English

Text
Language                       : English

Post a Comment

0 Comments