Search

Push 2009 720p Esub BluRay Dual Audio English Hindi GOPISAHI


Format                         : Matroska
Format version                 : Version 4 / Version 2
File size                      : 813 MiB
Duration                       : 1 h 51 min
Overall bit rate               : 1 020 kb/s
Movie name                     : Push 2009

Vide
Format                         : AVC
Codec ID                       : V_MPEG4/ISO/AVC
Duration                       : 1 h 51 min
Bit rate                       : 846 kb/s
Width                          : 1 280 pixels
Height                         : 544 pixels
Display aspect ratio           : 2.35:1
Frame rate mode                : Constant
Frame rate                     : 23.976 (24000/1001) FPS
Stream size                    : 673 MiB (83%)
Writing library                : x264 core 116 r2074 2641b9e

Audio #1
Format                         : AAC
Duration                       : 1 h 51 min
Bit rate                       : 89.8 kb/s
Channel(s)                     : 6 channels
Channel positions              : Front: L C R, Side: L R, LFE
Sampling rate                  : 44.1 kHz
Frame rate                     : 43.066 FPS (1024 SPF)
Stream size                    : 71.6 MiB (9%)
Language                       : Hindi

Audio #2
Format                         : AAC
Duration                       : 1 h 51 min
Bit rate                       : 82.7 kb/s
Channel(s)                     : 6 channels
Channel positions              : Front: L C R, Side: L R, LFE
Sampling rate                  : 44.1 kHz
Frame rate                     : 43.066 FPS (1024 SPF)
Stream size                    : 65.9 MiB (8%)
Language                       : English

Text
Language                       : English
 
 

Post a Comment

0 Comments