Search

Python 2000 720p x264 Esub DVD Dual Audio English Hindi GOPISAHI

 
Title: Python
Year: 2000
Runtime: 99 minutes
Votes: 2925
Rating: 3.7/10
Language: English
Country: USA
All Genres: Action, Comedy, Horror, Sci-Fi, Thriller
Plot Outline: After a military plane crash near a small American town, a giant man-eating snake sets off on a killing spree. The locals must find a way to eliminate the snake, with the help of a scientist who knows about the snake and terminates it.
Tagline: Sixty Feet of Pure Terror!
Director: Richard Clabaugh
Writing By: Phillip J. Roth,Chris Neal,Gary Hershberger,Paul Bogh,
Produced By: Jeffery Beach,Melanie J. Elin,James Hollensteiner,Thomas J. Niedermeyer Jr.,Ken Olandt,Phillip J. Roth,Richard Smith,Plamen Voynovsky,
Music: Daniel Nielsen
Cast:
Frayne Rosanoff as John Cooper 
Robert Englund as Dr. Anton Rudolph 
Casper Van Dien as Bart Parker 
William Zabka as Greg Larsen 
Dana Barron as Kristin 
Sara Mornell as Theresa 
Wil Wheaton as Tommy 
Jenny McCarthy as Francesca Garibaldi 
Chris Owens as Brian Cooper 
Sean Whalen as Deputy Lewis Ross 
Trailers:
Python
Format                         : Matroska
Format version                 : Version 4 / Version 2
File size                      : 562 MiB
Duration                       : 1 h 40 min
Overall bit rate               : 785 kb/s
Movie name                     : Python  2000 GOPISAHI

Video
Format                         : AVC
Codec ID                       : V_MPEG4/ISO/AVC
Duration                       : 1 h 39 min
Bit rate                       : 600 kb/s
Width                          : 1 280 pixels
Height                         : 720 pixels
Display aspect ratio           : 16:9
Frame rate mode                : Constant
Frame rate                     : 23.976 (24000/1001) FPS
Stream size                    : 429 MiB (76%)
Title                          : GOPISAHI
Writing library                : x264 core 155 r2893 b00bcaf

Audio #1
Format                         : AAC
Duration                       : 1 h 39 min
Bit rate                       : 92.7 kb/s
Channel(s)                     : 6 channels
Channel positions              : Front: L C R, Side: L R, LFE
Sampling rate                  : 44.1 kHz
Frame rate                     : 43.066 FPS (1024 SPF)
Compression mode               : Lossy
Stream size                    : 66.2 MiB (12%)
Title                          : GOPISAHI
Language                       : Hindi

Audio #2
Format                         : AAC
Duration                       : 1 h 39 min
Bit rate                       : 90.7 kb/s
Channel(s)                     : 6 channels
Channel positions              : Front: L C R, Side: L R, LFE
Sampling rate                  : 44.1 kHz
Frame rate                     : 43.066 FPS (1024 SPF)
Compression mode               : Lossy
Stream size                    : 64.8 MiB (12%)
Title                          : GOPISAHI
Language                       : English

Text
Language                       : English







Post a Comment

0 Comments