Search

Rabb Da Radio 2017 720p HD RIP Punjabi GOPISAHI

Format                         : Matroska
Format version                 : Version 4 / Version 2
File size                      : 852 MiB
Duration                       : 1 h 59 min
Overall bit rate               : 994 kb/s
Movie name                     : Rabb Da Radio 2017 GOPISAHI
Encoded date                   : UTC 2017-08-10 04:52:16
Vide
Format                         : AVC
Codec ID                       : V_MPEG4/ISO/AVC
Duration                       : 1 h 59 min
Bit rate                       : 899 kb/s
Width                          : 1 280 pixels
Height                         : 536 pixels
Display aspect ratio           : 2.40:1
Frame rate mode                : Constant
Frame rate                     : 24.000 FPSve
Bits/(Pixel*Frame)             : 0.055
Stream size                    : 774 MiB (91%)
Writing library                : x264 core 148 r2708 86b7198
Audio
Format                         : AAC
Duration                       : 1 h 59 min
Bit rate                       : 88.3 kb/s
Channel(s)                     : 6 channels
Channel positions              : Front: L C R, Side: L R, LFE
Sampling rate                  : 44.1 kHz
Frame rate                     : 43.066 FPS (1024 SPF)
Stream size                    : 75.7 MiB (9%)
Language                       : Panjabi
 
 

Post a Comment

0 Comments