Search

Ratatouille 2007 720p Esub BluRay Dual Audio English Hindi ORG 384 KBPS 5.1 GOPISAHI


Format version                 : Version 4 / Version 2
File size                      : 843 MiB
Duration                       : 1 h 50 min
Overall bit rate               : 1 066 kb/s
Movie name                     : Ratatouille 2007
Encoded date                   : UTC 2017-08-14 01:51:12
Video
Format                         : AVC
Codec ID                       : V_MPEG4/ISO/AVC
Duration                       : 1 h 50 min
Bit rate                       : 597 kb/s
Width                          : 1 280 pixels
Height                         : 534 pixels
Display aspect ratio           : 2.35:1
Original display aspect ratio  : 2.35:1
Frame rate mode                : Constant
Frame rate                     : 23.976 (24000/1001) FPS
Stream size                    : 472 MiB (56%)
Writing library                : x264 core 68 r1183M f21daff
Audio #1
Format                         : AAC
Duration                       : 1 h 50 min
Bit rate                       : 84.4 kb/s
Channel(s)                     : 6 channels
Channel positions              : Front: L C R, Side: L R, LFE
Sampling rate                  : 44.1 kHz
Frame rate                     : 43.066 FPS (1024 SPF)
Stream size                    : 66.8 MiB (8%)
Language                       : English
Audio #2
Duration                       : 1 h 50 min
Bit rate                       : 384 kb/s
Channel(s)                     : 6 channels
Channel positions              : Front: L C R, Side: L R, LFE
Sampling rate                  : 44.1 kHz
Frame rate                     : 43.066 FPS (1024 SPF)
Stream size                    : 302 MiB (36%)
Language                       : Hindi
Text
Language                       : English


Post a Comment

0 Comments