Search

Red Sparrow 2018 720p Esub BluRay 5.1 Dual Audio English Hindi GOPISAHI



Format                         : Matroska
Format version                 : Version 4 / Version 2
File size                      : 975 MiB
Duration                       : 2 h 20 min
Overall bit rate               : 972 kb/s
Movie name                     : Red Sparrow 2018[url=http://] www.GOPISAHI.pw[/url]


Video
ID                             : 1
Format                         : AVC
Format/Info                    : Advanced Video Codec
Format profile                 : [email protected]
Format settings                : CABAC / 12 Ref Frames
Format settings, CABAC         : Yes
Format settings, ReFrames      : 12 frames
Codec ID                       : V_MPEG4/ISO/AVC
Duration                       : 2 h 20 min
Bit rate                       : 800 kb/s
Width                          : 1 280 pixels
Height                         : 534 pixels
Display aspect ratio           : 2.40:1
Original display aspect ratio  : 2.40:1
Frame rate mode                : Constant
Frame rate                     : 23.976 (24000/1001) FPS
Color space                    : YUV
Chroma subsampling             : 4:2:0
Bit depth                      : 8 bits
Scan type                      : Progressive
Bits/(Pixel*Frame)             : 0.049
Stream size                    : 802 MiB (82%)
Title                          : [url=http://]www.GOPISAHI.pw[/url]
Writing library                : x264 core 155 r2893 b00bcaf

Audio #1
ID                             : 2
Format                         : AAC
Format/Info                    : Advanced Audio Codec
Format profile                 : LC
Codec ID                       : A_AAC-2
Duration                       : 2 h 20 min
Bit rate                       : 83.4 kb/s
Channel(s)                     : 6 channels
Channel positions              : Front: L C R, Side: L R, LFE
Sampling rate                  : 44.1 kHz
Frame rate                     : 43.066 FPS (1024 SPF)
Compression mode               : Lossy
Stream size                    : 83.7 MiB (9%)
Title                          :[url=http://] www.GOPISAHI.pw[/url]
Language                       : English


Audio #2
ID                             : 4
Format                         : AAC
Format/Info                    : Advanced Audio Codec
Format profile                 : LC
Codec ID                       : A_AAC-2
Duration                       : 2 h 20 min
Bit rate                       : 85.6 kb/s
Channel(s)                     : 6 channels
Channel positions              : Front: L C R, Side: L R, LFE
Sampling rate                  : 44.1 kHz
Frame rate                     : 43.066 FPS (1024 SPF)
Compression mode               : Lossy
Stream size                    : 85.8 MiB (9%)
Title                          : [url=http://]www.GOPISAHI.pw[/url]
Language                       : Hindi

Text
ID                             : 3
Format                         : UTF-8
Codec ID                       : S_TEXT/UTF8
Codec ID/Info                  : UTF-8 Plain Text
Duration                       : 2 h 12 min
Bit rate                       : 51 b/s
Count of elements              : 1778
Stream size                    : 50.4 KiB (0%)
Title                          : [url=http://]www.GOPISAHI.pw[/url]
Language                       : English




Post a Comment

1 Comments

  1. Bhai 500-600 mb Rip mein upload nahi kroge?

    ReplyDelete