Search

Redbelt 2008 720p Esub BluRay Dual Audio English Hindi GOPISAHI


Format                         : Matroska
Format version                 : Version 4 / Version 2
File size                      : 942 MiB
Duration                       : 1 h 39 min
Overall bit rate               : 1 328 kb/s
Movie name                     : Redbelt 2008

Video
Format                         : AVC
Codec ID                       : V_MPEG4/ISO/AVC
Duration                       : 1 h 39 min
Bit rate                       : 1 163 kb/s
Width                          : 1 280 pixels
Height                         : 544 pixels
Display aspect ratio           : 2.35:1
Frame rate mode                : Constant
Frame rate                     : 23.976 (24000/1001) FPS
Stream size                    : 824 MiB (88%)
Writing library                : x264

Audio #1 3
Format                         : AAC
Duration                       : 1 h 39 min
Bit rate                       : 86.1 kb/s
Channel(s)                     : 6 channels
Channel positions              : Front: L C R, Side: L R, LFE
Sampling rate                  : 44.1 kHz
Frame rate                     : 43.066 FPS (1024 SPF)
Stream size                    : 61.1 MiB (6%)
Language                       : English


Audio #2
Format                         : AAC
Duration                       : 1 h 39 min
Bit rate                       : 76.7 kb/s
Channel(s)                     : 6 channels
Channel positions              : Front: L C R, Side: L R, LFE
Sampling rate                  : 44.1 kHz
Frame rate                     : 43.066 FPS (1024 SPF)
Stream size                    : 54.4 MiB (6%)
Language                       : Hindi

Text
Language                       : English
 
 

Post a Comment

0 Comments