Search

Rogue One A Star Wars Story 2016 720p Esub BluRay 5.1 Dual Audio English Hindi GOPISAHI


Format                         : Matroska
Format version                 : Version 4 / Version 2
File size                      : 649 MiB
Duration                       : 2 h 13 min
Overall bit rate               : 678 kb/s
Movie name                     : Rogue One A Star Wars Story 2016 GOPISAHI

Video
ID                             : 1
Format                         : HEVC
Format/Info                    : High Efficiency Video Coding
Format profile                 : [email protected]@Main
Codec ID                       : V_MPEGH/ISO/HEVC
Duration                       : 2 h 13 min
Bit rate                       : 501 kb/s
Width                          : 1 280 pixels
Height                         : 534 pixels
Display aspect ratio           : 2.40:1
Original display aspect ratio  : 2.40:1
Frame rate mode                : Constant
Frame rate                     : 23.976 (24000/1001) FPS
Stream size                    : 480 MiB (74%)
Title                          : GOPISAHI
Writing library                : x265 2.1:[Windows][GCC 5.3.1][64 bit] 8bit

Audio #1
Format                         : AAC
Duration                       : 2 h 13 min
Bit rate                       : 88.6 kb/s
Channel(s)                     : 6 channels
Channel positions              : Front: L C R, Side: L R, LFE
Sampling rate                  : 44.1 kHz
Frame rate                     : 43.066 FPS (1024 SPF)
Compression mode               : Lossy
Stream size                    : 84.9 MiB (13%)
Title                          : GOPISAHI
Language                       : Hindi

Audio #2
Format                         : AAC
Duration                       : 2 h 13 min
Bit rate                       : 85.4 kb/s
Channel(s)                     : 6 channels
Channel positions              : Front: L C R, Side: L R, LFE
Sampling rate                  : 44.1 kHz
Frame rate                     : 43.066 FPS (1024 SPF)
Compression mode               : Lossy
Stream size                    : 81.8 MiB (13%)
Title                          : GOPISAHI
Language                       : English

Text
Language                       : English
 
 

Post a Comment

0 Comments