Search

Rough Book 2016 Eng Harcodede Sub WEBHDRIP HINDI GOPISAHI

Format                         : Matroska
Format version                 : Version 4 / Version 2
File size                      : 343 MiB
Duration                       : 1 h 38 min
Overall bit rate               : 485 kb/s
Movie name                     : Rough Book 2016 GOPISAHI

Video
Format                         : AVC
Codec ID                       : V_MPEG4/ISO/AVC
Duration                       : 1 h 38 min
Bit rate                       : 400 kb/s
Width                          : 1 280 pixels
Height                         : 596 pixels
Display aspect ratio           : 2.148
Frame rate mode                : Constant
Frame rate                     : 30.000 FPS
Stream size                    : 283 MiB (83%)
Title                          : GOPISAHI
Writing library                : x264 core 155 r2893 b00bcaf

Audio
Format                         : AAC
Duration                       : 1 h 38 min
Bit rate                       : 82.3 kb/s
Channel(s)                     : 6 channels
Channel positions              : Front: L C R, Side: L R, LFE
Sampling rate                  : 44.1 kHz
Frame rate                     : 43.066 FPS (1024 SPF)
Compression mode               : Lossy
Stream size                    : 58.2 MiB (17%)
Title                          : GOPISAHI
Language                       : Hindi
 
 

Post a Comment

0 Comments