Search

Saab Bahadar 2017 720p Non Retail DVDRiP Punjabi GOPISAHI


Format                         : Matroska
Format version                 : Version 4 / Version 2
File size                      : 491 MiB
Duration                       : 1 h 55 min
Overall bit rate               : 596 kb/s
Movie name                     : Saab Bahadar 2017

Video
Format                         : AVC
Codec ID                       : V_MPEG4/ISO/AVC
Duration                       : 1 h 55 min
Bit rate                       : 499 kb/s
Width                          : 1 280 pixels
Height                         : 568 pixels
Display aspect ratio           : 2.25:1
Frame rate mode                : Constant
Frame rate                     : 23.976 (24000/1001) FPS
Stream size                    : 411 MiB (84%)
Writing library                : x264

Audio
Format                         : AAC
Duration                       : 1 h 55 min
Bit rate                       : 96.0 kb/s
Channel(s)                     : 6 channels
Channel positions              : Front: L C R, Side: L R, LFE
Sampling rate                  : 44.1 kHz
Frame rate                     : 43.066 FPS (1024 SPF)
Stream size                    : 78.4 MiB (16%)
Language                       : Panjabi
 
 

Post a Comment

0 Comments