Search

Sahara 2005 720p Esub BluRay Dual Audio English Hindi GOPISAHI

General
Format                         : Matroska
Format version                 : Version 4 / Version 2
File size                      : 971 MiB
Duration                       : 2 h 4 min
Overall bit rate               : 1 090 kb/s
Movie name                     : Sahara 2005
Video
Format                         : AVC
Codec ID                       : V_MPEG4/ISO/AVC
Duration                       : 2 h 4 min
Bit rate                       : 855 kb/s
Width                          : 1 280 pixels
Height                         : 528 pixels
Display aspect ratio           : 2.40:1
Original display aspect ratio  : 2.40:1
Frame rate mode                : Constant
Frame rate                     : 23.976 (23976/1000) FPS
Stream size                    : 761 MiB (78%)
Writing library                : x264 core 140 r2377kMod 1ca7bb9
Audio #1
Format                         : AAC
Duration                       : 2 h 4 min
Bit rate                       : 89.5 kb/s
Channel(s)                     : 6 channels
Channel positions              : Front: L C R, Side: L R, LFE
Sampling rate                  : 44.1 kHz
Frame rate                     : 43.066 FPS (1024 SPF)
Stream size                    : 79.6 MiB (8%)
Language                       : English
Audio #
Codec ID                       : A_AAC
Duration                       : 2 h 4 min
Bit rate                       : 144 kb/s
Channel(s)                     : 6 channels
Channel positions              : Front: L C R, Side: L R, LFE
Sampling rate                  : 44.1 kHz
Frame rate                     : 43.066 FPS (1024 SPF)
Stream size                    : 127 MiB (13%)
Language                       : Hindi
Text
Language                       : English