Search

Santa Who 2000 DVD Dual Audio English Hindi GOPISAHI


Title: "The Wonderful World of Disney" Santa Who?
Year: 2000
Runtime: 92 minutes
Votes: 1480
Rating: 5.2/10
Language: English
Country: USA
All Genres: Animation, Action, Adventure, Comedy, Drama, Family, Fantasy, Musical
Plot Outline: Santa suffers a case of amnesia on the eve of his busiest season.
Tagline: Will the real Santa Claus please step forward?
Director: William Dear
Writing By: Debra Frank,Steve L. Hayes,Chad Hoffman,Robert Schwartz,
Produced By: Cheryl Green,Chad Hoffman,Robert Schwartz,Frank Siracusa,
Music: Joel McNeely
Cast:
Leslie Nielsen as Santa Claus 
Steven Eckholdt as Peter Albright 
Robyn Lively as Claire Dreyer 
Max Morrow as Zack Dreyer 
Tommy Davidson as Max 
Darren Frost as Rupert the Elf 
Karen LeBlanc as Lenny 
R.D. Reid as Grady 
Ted Atherton as George 
Stewart Arnott as Lusby 
Trailers:
Santa Who?
Format                         : Matroska
Format version                 : Version 4 / Version 2
File size                      : 320 MiB
Duration                       : 1 h 32 min
Overall bit rate               : 485 kb/s
Movie name                     : Santa Who  2000 GOPISAHI

Video
Format                         : AVC
Codec ID                       : V_MPEG4/ISO/AVC
Duration                       : 1 h 32 min
Bit rate                       : 300 kb/s
Width                          : 720 pixels
Height                         : 544 pixels
Display aspect ratio           : 4:3
Frame rate mode                : Constant
Frame rate                     : 23.976 (24000/1001) FPS
Color space                    : YUV
Chroma subsampling             : 4:2:0
Bit depth                      : 8 bits
Scan type                      : Progressive
Bits/(Pixel*Frame)             : 0.032
Stream size                    : 198 MiB (62%)
Title                          : GOPISAHI
Writing library                : x264 core 155 r2893 b00bcaf

Audio #1
Format                         : AAC
Duration                       : 1 h 32 min
Bit rate                       : 90.5 kb/s
Channel(s)                     : 6 channels
Channel positions              : Front: L C R, Side: L R, LFE
Sampling rate                  : 44.1 kHz
Frame rate                     : 43.066 FPS (1024 SPF)
Compression mode               : Lossy
Stream size                    : 59.7 MiB (19%)
Title                          : GOPISAHI
Language                       : English

Audio #2
Format                         : AAC
Duration                       : 1 h 32 min
Bit rate                       : 91.2 kb/s
Channel(s)                     : 6 channels
Channel positions              : Front: L C R, Side: L R, LFE
Sampling rate                  : 44.1 kHz
Frame rate                     : 43.066 FPS (1024 SPF)
Compression mode               : Lossy
Stream size                    : 60.2 MiB (19%)
Title                          : GOPISAHI
Language                       : Hindi
 
 
 

Post a Comment

0 Comments