Search

Sat Shri Akaal England 2017 PreDVDRip Punjabi GOPISAHI

Format                         : Matroska
Format version                 : Version 4 / Version 2
File size                      : 321 MiB
Duration                       : 2 h 4 min
Overall bit rate               : 359 kb/s
Movie name                     : Sat Shri Akaal England 2017 GOPISAHI
Video2
Format                         : AVC
Codec ID                       : V_MPEG4/ISO/AVC
Duration                       : 2 h 4 min
Bit rate                       : 300 kb/s
Width                          : 720 pixels
Height                         : 320 pixels
Display aspect ratio           : 2.25:1
Frame rate mode                : Constant
Frame rate                     : 29.970 (29970/1000) FPS
Original frame rate            : 29.970 (30000/1001) FPS
Stream size                    : 268 MiB (84%)
Writing library                : x264
Audio
Format                         : AAC
Duration                       : 2 h 4 min
Bit rate                       : 56.5 kb/s
Channel(s)                     : 2 channels
Channel positions              : Front: L R
Sampling rate                  : 44.1 kHz
Frame rate                     : 43.066 FPS (1024 SPF)
Compression mode               : Lossy
Stream size                    : 50.5 MiB (16%)
Language                       : Panjabi
 
 

Post a Comment

0 Comments