Search

Screamers 1995 720p Esub hd Dual Audio English Hindi GOPISAHI

Format                         : Matroska
Format version                 : Version 4 / Version 2
File size                      : 678 MiB
Duration                       : 1 h 48 min
Overall bit rate               : 874 kb/s
Movie name                     : Screamers 1995
Video
Format                         : AVC
Codec ID                       : V_MPEG4/ISO/AVC
Duration                       : 1 h 48 min
Bit rate                       : 700 kb/s
Width                          : 1 280 pixels
Height                         : 716 pixels
Display aspect ratio           : 16:9
Frame rate mode                : Constant
Frame rate                     : 23.976 (24000/1001) FPS
Color space                    : YUV
Chroma subsampling             : 4:2:0
Bit depth                      : 8 bits
Scan type                      : Progressive
Bits/(Pixel*Frame)             : 0.032
Stream size                    : 543 MiB (80%)
Writing library                : x264
Audio #1
Format                         : AAC
Duration                       : 1 h 48 min
Bit rate                       : 88.3 kb/s
Channel(s)                     : 6 channels
Channel positions              : Front: L C R, Side: L R, LFE
Sampling rate                  : 44.1 kHz
Frame rate                     : 43.066 FPS (1024 SPF)
Compression mode               : Lossy
Stream size                    : 68.5 MiB (10%)
Language                       : English
Audio #2
Format                         : AAC
Duration                       : 1 h 48 min
Bit rate                       : 83.1 kb/s
Channel(s)                     : 6 channels
Channel positions              : Front: L C R, Side: L R, LFE
Sampling rate                  : 44.1 kHz
Frame rate                     : 43.066 FPS (1024 SPF)
Compression mode               : Lossy
Stream size                    : 64.4 MiB (10%)
Language                       : Hindi
Text
Language                       : English



Post a Comment

0 Comments