Search

Shab 2017 720p Esub DVD Hindi GOPISAHI

https://lookimg.com/images/2017/12/15/kXp8t.jpg
Format                         : Matroska
Format version                 : Version 4 / Version 2
File size                      : 607 MiB
Duration                       : 1 h 47 min
Overall bit rate               : 788 kb/s
Movie name                     : Shab 2017
Video
Format                         : AVC
Codec ID                       : V_MPEG4/ISO/AVC
Duration                       : 1 h 47 min
Bit rate                       : 700 kb/s
Width                          : 1 280 pixels
Height                         : 544 pixels
Display aspect ratio           : 2.35:1
Frame rate mode                : Constant
Frame rate                     : 23.976 (24000/1001) FPS
Color space                    : YUV
Chroma subsampling             : 4:2:0
Bit depth                      : 8 bits
Scan type                      : Progressive
Bits/(Pixel*Frame)             : 0.042
Stream size                    : 539 MiB (89%)
Writing library                : x264
Audio
Format                         : AAC
Duration                       : 1 h 47 min
Bit rate                       : 86.0 kb/s
Channel(s)                     : 6 channels
Channel positions              : Front: L C R, Side: L R, LFE
Sampling rate                  : 44.1 kHz
Frame rate                     : 43.066 FPS (1024 SPF)
Compression mode               : Lossy
Stream size                    : 66.3 MiB (11%)
Title                          : GOPISAHI
Language                       : Hindi
Text
Language                       : English
https://lookimg.com/images/2017/12/15/kX4FJ.jpg
https://lookimg.com/images/2017/12/15/kXSKD.jpg
https://lookimg.com/images/2017/12/15/kX3X8.jpg
 
 

Post a Comment

0 Comments