Search

Shinjuku Incident 2009 720p Esub BDRip Dual Audio English Hindi GOPISAHI


Format                         : Matroska
Format version                 : Version 4 / Version 2
File size                      : 825 MiB
Duration                       : 1 h 59 min
Overall bit rate               : 967 kb/s
Movie name                     : Shinjuku Incident 2009

Video
Format                         : AVC
Codec ID                       : V_MPEG4/ISO/AVC
Duration                       : 1 h 59 min
Bit rate                       : 780 kb/s
Width                          : 1 280 pixels
Height                         : 544 pixels
Display aspect ratio           : 2.35:1
Frame rate mode                : Constant
Frame rate                     : 23.976 (24000/1001) FPS
Stream size                    : 665 MiB (81%)
Title                          : GOPISAHI
Writing library                : x264 core 130 r2273 b3065e6

Audio #1
Format                         : AAC
Duration                       : 1 h 59 min
Bit rate                       : 91.5 kb/s
Channel(s)                     : 6 channels
Channel positions              : Front: L C R, Side: L R, LFE
Sampling rate                  : 44.1 kHz
Frame rate                     : 43.066 FPS (1024 SPF)
Stream size                    : 78.0 MiB (9%)
Language                       : English

Audio #2
Format                         : AAC
Duration                       : 1 h 59 min
Bit rate                       : 93.0 kb/s
Channel(s)                     : 6 channels
Channel positions              : Front: L C R, Side: L R, LFE
Sampling rate                  : 44.1 kHz
Frame rate                     : 43.066 FPS (1024 SPF)
Stream size                    : 79.3 MiB (10%)
Language                       : Hindi

Text
Language                       : English
 
 

Post a Comment

0 Comments