Search

Spiritual Kung Fu 1978 720p Esub BlyRay Dual Audio Hindi Chinese GOPISAHI

Format                         : Matroska
Format version                 : Version 4 / Version 2
File size                      : 402 MiB
Duration                       : 1 h 38 min
Overall bit rate               : 568 kb/s
Movie name                     : Spiritual Kung Fu 1978
Video
Format                         : AVC
Codec ID                       : V_MPEG4/ISO/AVC
Duration                       : 1 h 38 min
Bit rate                       : 400 kb/s
Width                          : 1 280 pixels
Height                         : 534 pixels
Display aspect ratio           : 2.40:1
Frame rate mode                : Constant
Frame rate                     : 23.976 (24000/1001) FPS
Stream size                    : 283 MiB (70%)
Writing library                : x264
Audio #1
Format                         : AAC
Duration                       : 1 h 38 min
Bit rate                       : 77.9 kb/s
Channel(s)                     : 6 channels
Channel positions              : Front: L C R, Side: L R, LFE
Sampling rate                  : 44.1 kHz
Frame rate                     : 43.066 FPS (1024 SPF)
Compression mode               : Lossy
Stream size                    : 55.1 MiB (14%)
Language                       : Chinese
Audio #2
Format                         : AAC
Duration                       : 1 h 38 min
Bit rate                       : 86.9 kb/s
Channel(s)                     : 6 channels
Channel positions              : Front: L C R, Side: L R, LFE
Sampling rate                  : 44.1 kHz
Frame rate                     : 43.066 FPS (1024 SPF)
Compression mode               : Lossy
Stream size                    : 61.5 MiB (15%)
Language                       : Hindi
Text
Language                       : English


Post a Comment

0 Comments