Search

Starship Troopers 3 Marauder 2008 720p Esub BluRay Dual Audio English Hindi GOPISAHI


Format                         : Matroska
Format version                 : Version 4 / Version 2
File size                      : 775 MiB
Duration                       : 1 h 44 min
Overall bit rate               : 1 033 kb/s
Movie name                     : Starship Troopers 3 Marauder 2008 GOPISAHI

Video
Format                         : AVC
Codec ID                       : V_MPEG4/ISO/AVC
Duration                       : 1 h 44 min
Bit rate                       : 867 kb/s
Width                          : 1 280 pixels
Height                         : 688 pixels
Display aspect ratio           : 1.85:1
Frame rate mode                : Constant
Frame rate                     : 23.976 (24000/1001) FPS
Stream size                    : 649 MiB (84%)
Writing library                : x264

Audio #1
Format                         : AAC
Duration                       : 1 h 44 min
Bit rate                       : 88.3 kb/s
Channel(s)                     : 6 channels
Channel positions              : Front: L C R, Side: L R, LFE
Sampling rate                  : 44.1 kHz
Frame rate                     : 43.066 FPS (1024 SPF)
Stream size                    : 66.2 MiB (9%)
Title                          : GOPISAHI
Language                       : English

Audio #2
Format                         : AAC
Duration                       : 1 h 40 min
Bit rate                       : 81.6 kb/s
Channel(s)                     : 6 channels
Channel positions              : Front: L C R, Side: L R, LFE
Sampling rate                  : 44.1 kHz
Frame rate                     : 43.066 FPS (1024 SPF)
Stream size                    : 58.5 MiB (8%)
Title                          : GOPISAHI
Language                       : Hindi

Text
Language                       : English
 
 

Post a Comment

0 Comments