Search

Subedar Joginder Singh 2018 DVDScr Punjabi GOPISAHI

Format                         : Matroska
Format version                 : Version 4 / Version 2
File size                      : 340 MiB
Duration                       : 2 h 12 min
Overall bit rate               : 359 kb/s
Movie name                     : Subedar Joginder Singh 2018 GOPISAHI

Video
Format                         : AVC
Codec ID                       : V_MPEG4/ISO/AVC
Duration                       : 2 h 12 min
Bit rate                       : 300 kb/s
Width                          : 648 pixels
Height                         : 288 pixels
Display aspect ratio           : 2.25:1
Frame rate mode                : Constant
Frame rate                     : 29.970 (30000/1001) FPS
Color space                    : YUV
Chroma subsampling             : 4:2:0
Bit depth                      : 8 bits
Scan type                      : Progressive
Bits/(Pixel*Frame)             : 0.054
Stream size                    : 284 MiB (84%)
Title                          : GOPISAHI
Writing library                : x264 core 148 r2708 86b7198
Language                       : Panjabi

Audio
Format                         : AAC
Duration                       : 2 h 12 min
Bit rate                       : 56.5 kb/s
Channel(s)                     : 2 channels
Channel positions              : Front: L R
Sampling rate                  : 44.1 kHz
Frame rate                     : 43.066 FPS (1024 SPF)
Compression mode               : Lossy
Stream size                    : 53.6 MiB (16%)
Title                          : GOPISAHI
Language                       : Panjabi
 
 

Post a Comment

0 Comments