Search

Super Singh 2017 720p HD Hindi GOPISAHI

Format                         : Matroska
Format version                 : Version 4 / Version 2
File size                      : 601 MiB
Duration                       : 2 h 26 min
Overall bit rate               : 573 kb/s
Movie name                     : Super Singh 2017 GOPISAHI

Video
Format                         : AVC
Codec ID                       : V_MPEG4/ISO/AVC
Duration                       : 2 h 26 min
Bit rate                       : 500 kb/s
Width                          : 1 280 pixels
Height                         : 450 pixels
Display aspect ratio           : 2.844
Frame rate mode                : Constant
Frame rate                     : 25.000 FPS
Stream size                    : 524 MiB (87%)
Title                          : GOPISAHI
Writing library                : x264 core 148 r2708 86b719T.709

Audio
Format                         : AAC
Duration                       : 2 h 26 min
Bit rate                       : 72.0 kb/s
Channel(s)                     : 6 channels
Channel positions              : Front: L C R, Side: L R, LFE
Sampling rate                  : 44.1 kHz
Frame rate                     : 43.066 FPS (1024 SPF)
Compression mode               : Lossy
Stream size                    : 74.5 MiB (12%)
Title                          : GOPISAHI
Language                       : Hindi
 
 

Post a Comment

0 Comments