Search

Super Singh 2017 HDRIP Punjabi GOPISAHI

 Title: Super Singh
Year: 2017
Runtime: 155 minutes
Votes: 342
Rating: 6.9/10
Language: Panjabi
Country: India
All Genres: Action, Comedy, Fantasy, Romance
Plot Outline: A man's life changes after he unknowingly gets super powers and then embarks on a journey that helps him discover the true meaning of love, life, courage, sacrifice, and his role in the world.
Tagline: Ikk Taa Assi Singh Utton Super!!
Director: Anurag Singh
Writing By: Anurag Singh,Dheeraj Rattan,Anurag Singh,Jagdeep Singh,Rupinder Inderjit,Anurag Singh
Produced By: Aman Gill,Karan Gill,Pawan Gill,Gurpreet Singh Gyani,Ekta Kapoor,Shobha Kapoor,Marjorie Langevin,Rupesh Mali,Sameer Nair,Sakett Saawhney,Anurag Singh
Music: Jatinder Shah 
Cast:
Diljit Dosanjh as Sajjan 
Sonam Bajwa as Twinkle 
Pavan Malhotra as Sant Rehmat Singh 
Alexandra Bandean as Cathy 
Navnindra Behl as 
Alex Dorantes as Mark 
Rana Ranbir as 
Meherbaan Singh as Happy 
Jennifer Davos as Ustad's Mother 
Dominic Hardy as Violent thief
Format                         : Matroska
Format version                 : Version 4 / Version 2
File size                      : 493 MiB
Duration                       : 1 h 55 min
Overall bit rate               : 597 kb/s
Movie name                     : Super Singh 2017 HDRIP Punjabi GOPISAHI

Video
Format                         : AVC
Codec ID                       : V_MPEG4/ISO/AVC
Duration                       : 1 h 55 min
Bit rate                       : 500 kb/s
Width                          : 720 pixels
Height                         : 408 pixels
Display aspect ratio           : 16:9
Frame rate mode                : Constant
Frame rate                     : 25.000 FPS
Stream size                    : 413 MiB (84%)
Title                          : GOPISAHI
Writing library                : x264 core 155 r2893 b00bcaf

Audio
Format                         : AAC
Duration                       : 1 h 55 min
Bit rate                       : 96.0 kb/s
Channel(s)                     : 6 channels
Channel positions              : Front: L C R, Side: L R, LFE
Sampling rate                  : 44.1 kHz
Frame rate                     : 43.066 FPS (1024 SPF)
Compression mode               : Lossy
Stream size                    : 78.7 MiB (16%)
Title                          : GOPISAHI
Language                       : Panjabi
 
 
 

Post a Comment

0 Comments