Search

The Adventures of Huck Finn 1993 720p Esub HD Dual Audio English Hindi GOPISAHI

Format                         : Matroska
Format version                 : Version 4 / Version 2
File size                      : 509 MiB
Duration                       : 1 h 43 min
Overall bit rate               : 690 kb/s
Movie name                     : The Adventures of Huck Finn 1993

Video
Format                         : AVC
Codec ID                       : V_MPEG4/ISO/AVC
Duration                       : 1 h 43 min
Bit rate                       : 500 kb/s
Width                          : 1 272 pixels
Height                         : 688 pixels
Display aspect ratio           : 1.85:1
Frame rate mode                : Constant
Frame rate                     : 25.000 FPS
Stream size                    : 369 MiB (72%)
Writing library                : x264

Audio #1
Format                         : AAC
Duration                       : 1 h 43 min
Bit rate                       : 96.0 kb/s
Channel(s)                     : 6 channels
Channel positions              : Front: L C R, Side: L R, LFE
Sampling rate                  : 44.1 kHz
Frame rate                     : 43.066 FPS (1024 SPF)
Stream size                    : 69.5 MiB (14%)
Language                       : English

Audio #2
Format                         : AAC
Duration                       : 1 h 43 min
Bit rate                       : 92.9 kb/s
Channel(s)                     : 6 channels
Channel positions              : Front: L C R, Side: L R, LFE
Sampling rate                  : 44.1 kHz
Frame rate                     : 43.066 FPS (1024 SPF)
Stream size                    : 68.6 MiB (13%)
Language                       : Hindi

Text
Language                       : English
 
 

Post a Comment

0 Comments