Search

The Assassination of Jesse James 2007 720p Esub BluRay Dual Audio English Hindi GOPISAHI


 
Format                         : Matroska
Format version                 : Version 4 / Version 2
File size                      : 1 011 MiB
Duration                       : 2 h 39 min
Overall bit rate               : 885 kb/s
Movie name                     : The Assassination of Jesse James 2007

Video
Format                         : AVC
Codec ID                       : V_MPEG4/ISO/AVC
Duration                       : 2 h 39 min
Bit rate                       : 700 kb/s
Width                          : 1 280 pixels
Height                         : 534 pixels
Display aspect ratio           : 2.40:1
Frame rate mode                : Constant
Frame rate                     : 23.976 (24000/1001) FPS
Stream size                    : 799 MiB (79%)
Writing library                : x264 core 148 r2744 b97ae06

Audio #1
Format                         : AAC
Duration                       : 2 h 39 min
Bit rate                       : 87.7 kb/s
Channel(s)                     : 6 channels
Channel positions              : Front: L C R, Side: L R, LFE
Sampling rate                  : 44.1 kHz
Frame rate                     : 43.066 FPS (1024 SPF)
Stream size                    : 100 MiB (10%)
Language                       : English

Audio #2
Format                         : AAC
Duration                       : 2 h 39 min
Bit rate                       : 96.0 kb/s
Channel(s)                     : 6 channels
Channel positions              : Front: L C R, Side: L R, LFE
Sampling rate                  : 44.1 kHz
Frame rate                     : 43.066 FPS (1024 SPF)
Stream size                    : 108 MiB (11%)
Language                       : Hindi

Text
Language                       : English
 
 

Post a Comment

0 Comments