Search

The Big Boss 1971 720p Esub BDRiP Dual Audio Hindi Chinese GOPISAHI


Original Title: Tang shan da xiong
Title: The Big Boss
Year: 1971
Runtime: 100 minutes
Votes: 20314
Rating: 7.1/10
Language: Mandarin, Cantonese
Country: Hong Kong
All Genres: Action, Crime, Drama, Thriller
Plot Outline: A young man sworn to an oath of non-violence works with his cousins in an ice factory where they mysteriously begin to disappear.
Tagline: Every Limb Of His Body Is A Leathal Weapon!!!
Director: Wei Lo
Chia-Hsiang Wu
Writing By: Wei Lo,
Produced By: Raymond Chow,Liang Hua Liu,
Music: Peter Thomas Fu-Ling Wang
Cast:
Bruce Lee as Cheng Chao-an 
Maria Yi as Chow Mei 
James Tien as Hsiu Chien 
Marilyn Bautista as Miss Wuman 
Ying-Chieh Han as Hsiao Mi (The Boss) 
Tony Liu as Hsiao Chiun (Mi's son) 
Kun Li as Ah Kun 
Nora Miao as Drinkstand owner 
Shan Chin as Hua Sze 
Chia-Chen Tu as Uncle 
iMDB


Format                         : Matroska
Format version                 : Version 4 / Version 2
File size                      : 625 MiB
Duration                       : 1 h 39 min
Overall bit rate               : 876 kb/s
Movie name                     : The Big Boss 1971 GOPISAHI

Video
Format                         : AVC
Codec ID                       : V_MPEG4/ISO/AVC
Duration                       : 1 h 39 min
Bit rate                       : 700 kb/s
Width                          : 1 280 pixels
Height                         : 544 pixels
Display aspect ratio           : 2.35:1
Frame rate mode                : Constant
Frame rate                     : 23.976 (24000/1001) FPS
Stream size                    : 499 MiB (80%)
Title                          : GOPISAHI
Writing library                : x264 core 155 r2893 b00bcaf

Audio #1
Format                         : AAC
Duration                       : 1 h 39 min
Bit rate                       : 92.3 kb/s
Channel(s)                     : 6 channels
Channel positions              : Front: L C R, Side: L R, LFE
Sampling rate                  : 44.1 kHz
Frame rate                     : 43.066 FPS (1024 SPF)
Compression mode               : Lossy
Stream size                    : 65.8 MiB (11%)
Title                          : GOPISAHI
Language                       : Hindi

Audio #2
Format                         : AAC
Duration                       : 1 h 39 min
Bit rate                       : 80.7 kb/s
Channel(s)                     : 6 channels
Channel positions              : Front: L C R, Side: L R, LFE
Sampling rate                  : 44.1 kHz
Frame rate                     : 43.066 FPS (1024 SPF)
Compression mode               : Lossy
Stream size                    : 57.5 MiB (9%)
Title                          : GOPISAHI
Language                       : Chinese

Text
Language                       : English



Post a Comment

0 Comments