Search

The Blues Brothers 1980 720p x264 Esub BDRip Italian Hindi English GOPISAHI

Format                         : Matroska
Format version                 : Version 4 / Version 2
File size                      : 930 MiB
Duration                       : 2 h 12 min
Overall bit rate               : 978 kb/s
Movie name                     : The Blues Brothers 1980 GOPISAHI
Video
Format                         : AVC
Codec ID                       : V_MPEG4/ISO/AVC
Duration                       : 2 h 12 min
Bit rate                       : 700 kb/s
Width                          : 1 280 pixels
Height                         : 694 pixels
Display aspect ratio           : 1.85:1
Frame rate mode                : Constant
Frame rate                     : 23.976 (24000/1001) FPS
Stream size                    : 665 MiB (71%)
Title                          : GOPISAHI
Writing library                : x264 core 155 r2893 b00bcaf
Audio #1
Format                         : AAC
Duration                       : 2 h 12 min
Bit rate                       : 92.0 kb/s
Channel(s)                     : 6 channels
Channel positions              : Front: L C R, Side: L R, LFE
Sampling rate                  : 44.1 kHz
Frame rate                     : 43.066 FPS (1024 SPF)
Compression mode               : Lossy
Stream size                    : 87.4 MiB (9%)
Title                          : GOPISAHI
Language                       : English
Audio #2
Format                         : AAC
Duration                       : 2 h 12 min
Bit rate                       : 92.1 kb/s
Channel(s)                     : 6 channels
Channel positions              : Front: L C R, Side: L R, LFE
Sampling rate                  : 44.1 kHz
Frame rate                     : 43.066 FPS (1024 SPF)
Compression mode               : Lossy
Stream size                    : 87.5 MiB (9%)
Title                          : GOPISAHI
Language                       : Italian
Audio #3
Format                         : AAC
Duration                       : 2 h 12 min
Bit rate                       : 91.8 kb/s
Channel(s)                     : 6 channels
Channel positions              : Front: L C R, Side: L R, LFE
Sampling rate                  : 44.1 kHz
Frame rate                     : 43.066 FPS (1024 SPF)
Compression mode               : Lossy
Delay relative to video        : 9 ms
Stream size                    : 87.3 MiB (9%)
Title                          : GOPISAHI
Language                       : Hindi
TextHI
Language                       : English


Post a Comment

0 Comments