Search

The Book of Eli 2010 720p Esub BluRay Dual Audio English Hindi GOPISAHI

Format                         : Matroska
Format version                 : Version 4 / Version 2
File size                      : 600 MiB
Duration                       : 1 h 50 min
Overall bit rate               : 761 kb/s
Movie name                     : The Book of Eli 2010
Video
Format                         : AVC
Codec ID                       : V_MPEG4/ISO/AVC
Duration                       : 1 h 50 min
Bit rate                       : 595 kb/s
Width                          : 1 280 pixels
Height                         : 536 pixels
Display aspect ratio           : 2.40:1
Frame rate mode                : Constant
Frame rate                     : 23.976 FPS
Stream size                    : 469 MiB (78%)
Language                       : English
Audio #1
Format                         : AAC
Duration                       : 1 h 50 min
Bit rate                       : 78.4 kb/s
Channel(s)                     : 6 channels
Channel positions              : Front: L C R, Side: L R, LFE
Sampling rate                  : 44.1 kHz
Frame rate                     : 43.066 FPS (1024 SPF)
Stream size                    : 61.9 MiB (10%)
Language                       : English
Audio #2
Format                         : AAC
Duration                       : 1 h 48 min
Bit rate                       : 85.6 kb/s
Channel(s)                     : 6 channels
Channel positions              : Front: L C R, Side: L R, LFE
Sampling rate                  : 44.1 kHz
Frame rate                     : 43.066 FPS (1024 SPF)
Stream size                    : 66.6 MiB (11%)
Language                       : Hindi
Text
Language                       : English
 
 

Post a Comment

0 Comments