Search

The Family 2013 720p WEBRIP Hindi GOPISAHI


Format                         : Matroska
Format version                 : Version 4 / Version 2
File size                      : 354 MiB
Duration                       : 1 h 41 min
Overall bit rate               : 487 kb/s
Movie name                     : The Family 2013 GOPISAHI

Video
Format                         : AVC
Codec ID                       : V_MPEG4/ISO/AVC
Duration                       : 1 h 41 min
Bit rate                       : 400 kb/s
Width                          : 1 280 pixels
Height                         : 720 pixels
Display aspect ratio           : 16:9
Frame rate mode                : Constant
Frame rate                     : 30.000 FPS
Stream size                    : 291 MiB (82%)
Title                          : GOPISAHI
Language                       : English

Audio
ID                             : 2
Format                         : AAC
Duration                       : 1 h 41 min
Bit rate                       : 85.1 kb/s
Channel(s)                     : 6 channels
Channel positions              : Front: L C R, Side: L R, LFE
Sampling rate                  : 44.1 kHz
Frame rate                     : 43.066 FPS (1024 SPF)
Compression mode               : Lossy
Stream size                    : 61.9 MiB (17%)
Title                          : GOPISAHI
Language                       : Hindi
 
 

Post a Comment

0 Comments