Search

The Game of Death 1978 720p Esub BR Dual Audio English Hindi GOPISAHI

Format                         : Matroska
Format version                 : Version 4 / Version 2
File size                      : 756 MiB
Duration                       : 1 h 40 min
Overall bit rate               : 1 053 kb/s
Movie name                     : The Game of Death 1978

Video
Format                         : AVC
Codec ID                       : V_MPEG4/ISO/AVC
Duration                       : 1 h 40 min
Bit rate                       : 890 kb/s
Width                          : 1 280 pixels
Height                         : 544 pixels
Display aspect ratio           : 2.35:1
Frame rate mode                : Constant
Frame rate                     : 23.976 (24000/1001) FPS
Stream size                    : 639 MiB (85%)
Writing library                : x264 core 120

Audio #1
Format                         : AAC
Duration                       : 1 h 40 min
Bit rate                       : 75.3 kb/s
Channel(s)                     : 6 channels
Channel positions              : Front: L C R, Side: L R, LFE
Sampling rate                  : 44.1 kHz
Frame rate                     : 43.066 FPS (1024 SPF)
Compression mode               : Lossy
Stream size                    : 54.1 MiB (7%)
Language                       : English

Audio #2
Format                         : AAC
Duration                       : 1 h 40 min
Bit rate                       : 84.9 kb/s
Channel(s)                     : 6 channels
Channel positions              : Front: L C R, Side: L R, LFE
Sampling rate                  : 44.1 kHz
Frame rate                     : 43.066 FPS (1024 SPF)
Compression mode               : Lossy
Stream size                    : 60.9 MiB (8%)
Language                       : Hindi

Text
Language                       : English





Post a Comment

0 Comments