Search

The Matador 2005 1080p Esub BluRay Dual Audio English Hindi GOPISAHI

Format                         : Matroska
Format version                 : Version 4 / Version 2
File size                      : 818 MiB
Duration                       : 1 h 37 min
Overall bit rate               : 1 170 kb/s
Movie name                     : The Matador 2005 BluRay
Video
ID                             : 1
Format                         : AVCs
Codec ID                       : V_MPEG4/ISO/AVC
Duration                       : 1 h 37 min
Bit rate                       : 999 kb/s
Width                          : 1 920 pixels
Height                         : 816 pixels
Display aspect ratio           : 2.35:1
Frame rate mode                : Constant
Frame rate                     : 23.976 (24000/1001) FPS
Stream size                    : 698 MiB (85%)
Writing library                : x264 core 148 r2708 86b7198
Audio #1
Format                         : AC-3
Duration                       : 1 h 37 min
Bit rate mode                  : Constant
Bit rate                       : 96.0 kb/s
Channel(s)                     : 6 channels
Channel positions              : Front: L C R, Side: L R, LFE
Sampling rate                  : 44.1 kHz
Frame rate                     : 28.711 FPS (1536 SPF)
Stream size                    : 67.1 MiB (8%)I
Language                       : English
Audio #2
Format                         : AAC
Duration                       : 1 h 33 min
Bit rate                       : 76.2 kb/s
Channel(s)                     : 6 channels
Channel positions              : Front: L C R, Side: L R, LFE
Sampling rate                  : 44.1 kHz
Frame rate                     : 43.066 FPS (1024 SPF)
Stream size                    : 50.9 MiB (6%)
Language                       : Hindi
Text
Language                       : English