Search

The Mortal Instruments City of Bones 2013 720p Esub BluRay Dual Audio English Hindi GOPISAHI

Format                         : Matroska
Format version                 : Version 4 / Version 2
File size                      : 753 MiB
Duration                       : 2 h 10 min
Overall bit rate               : 808 kb/s
Movie name                     : The Mortal Instruments City of Bones 2013 GOPISAHI


Video
Format                         : AVC
Codec ID                       : V_MPEG4/ISO/AVC
Duration                       : 2 h 10 min
Bit rate                       : 600 kb/s
Width                          : 1 280 pixels
Height                         : 536 pixels
Display aspect ratio           : 2.40:1
Frame rate mode                : Constant
Frame rate                     : 23.976 (24000/1001) FPS
Stream size                    : 559 MiB (74%)
Writing library                : x264 core 155 r2893 b00bcaf

Audio #
Format                         : AAC
Duration                       : 2 h 10 min
Bit rate                       : 102 kb/s
Channel(s)                     : 6 channels
Channel positions              : Front: L C R, Side: L R, LFE
Sampling rate                  : 44.1 kHz
Frame rate                     : 43.066 FPS (1024 SPF)
Compression mode               : Lossy
Stream size                    : 95.0 MiB (13%)
Language                       : English

Audio #2
Format                         : AAC
Duration                       : 2 h 10 min
Bit rate                       : 104 kb/s
Channel(s)                     : 6 channels
Channel positions              : Front: L C R, Side: L R, LFE
Sampling rate                  : 44.1 kHz
Frame rate                     : 43.066 FPS (1024 SPF)
Compression mode               : Lossy
Stream size                    : 96.8 MiB (13%)
Language                       : Hindi

Text
Language                       : English
 

Post a Comment

0 Comments