Search

The Number 23 2007 DC 720p Esub BluRay Dual Audio English Hindi GOPISAHI

General
Format                         : Matroska
Format version                 : Version 4 / Version 2
File size                      : 582 MiB
Duration                       : 1 h 41 min
Overall bit rate               : 803 kb/s
Movie name                     : The Number 23 2007 DC GOPISAHI
Video
ID                             : 1
Format                         : AVC
Format/Info                    : Advanced Video Codec
Format profile                 : [email protected]
Format settings, CABAC         : Yes
Format settings, RefFrames     : 3 frames
Codec ID                       : V_MPEG4/ISO/AVC
Duration                       : 1 h 37 min
Bit rate                       : 677 kb/s
Width                          : 1 280 pixels
Height                         : 544 pixels
Display aspect ratio           : 2.35:1
Frame rate mode                : Constant
Frame rate                     : 23.976 (24000/1001) FPS
Stream size                    : 469 MiB (81%)
Title                          : The Number 23 - YIFY
Writing library                : x264
Audio #1
Format                         : AAC
Duration                       : 1 h 37 min
Bit rate                       : 78.6 kb/s
Channel(s)                     : 6 channels
Channel positions              : Front: L C R, Side: L R, LFE
Sampling rate                  : 44.1 kHz
Frame rate                     : 43.066 FPS (1024 SPF)
Stream size                    : 54.6 MiB (9%)
Language                       : English
Audio #2
Format                         : AAC
Duration                       : 1 h 41 min
Bit rate                       : 77.0 kb/s
Channel(s)                     : 6 channels
Channel positions              : Front: L C R, Side: L R, LFE
Sampling rate                  : 44.1 kHz
Frame rate                     : 43.066 FPS (1024 SPF)
Stream size                    : 55.8 MiB (10%)
Title                          : GOPISAHI
Language                       : Hindi
Text
Language                       : English
 
 

Post a Comment

0 Comments