Search

The Purge Election Year 2016 720p Esub BluRay 5.1 Dual Audio English Hindi GOPISAHI


 General
Unique ID                      : 70213349534951564251973271291403654488 (0x34D29967905913642045170118BF5558)
Complete name                  : G:\film\dub\logy 720p\The Purge\The Purge Election Year 2016 720p Esub BluRay 5.1 Dual Audio English Hindi WWW.GOPISAHI.PW.mkv
Format                         : Matroska
Format version                 : Version 4 / Version 2
File size                      : 881 MiB
Duration                       : 1 h 48 min
Overall bit rate               : 1 131 kb/s
Movie name                     : The Purge Election Year 2016 GOPI SAHI

Video
Format                         : AVC
Codec ID                       : V_MPEG4/ISO/AVC
Duration                       : 1 h 48 min
Bit rate                       : 949 kb/s
Width                          : 1 280 pixels
Height                         : 536 pixels
Display aspect ratio           : 2.40:1
Frame rate mode                : Constant
Frame rate                     : 23.976 (24000/1001) FPS
Color space                    : YUV
Chroma subsampling             : 4:2:0
Bit depth                      : 8 bits
Scan type                      : Progressive
Bits/(Pixel*Frame)             : 0.058
Stream size                    : 738 MiB (84%)
Title                          : WWW.GOPISAHI.PW
Writing library                : x264 core 148 r2638 7599210

Audio #1
Format                         : AAC
Duration                       : 1 h 48 min
Bit rate                       : 90.4 kb/s
Channel(s)                     : 6 channels
Channel positions              : Front: L C R, Side: L R, LFE
Sampling rate                  : 48.0 kHz
Frame rate                     : 46.875 FPS (1024 SPF)
Compression mode               : Lossy
Delay relative to video        : 979 ms
Stream size                    : 70.4 MiB (8%)
Title                          : WWW.GOPISAHI.PW
Language                       : Hindi

Audio #2
Format                         : AAC
Duration                       : 1 h 48 min
Bit rate                       : 89.9 kb/s
Channel(s)                     : 6 channels
Channel positions              : Front: L C R, Side: L R, LFE
Sampling rate                  : 48.0 kHz
Frame rate                     : 46.875 FPS (1024 SPF)
Compression mode               : Lossy
Delay relative to video        : -21 ms
Stream size                    : 70.0 MiB (8%)
Title                          : WWW.GOPISAHI.PW
Language                       : English

Text
Language                       : English



Post a Comment

0 Comments