Search

The Saint 1997 720p Esub HD Dual Audio English Hindi GOPISAHI

Format                         : Matroska
Format version                 : Version 4 / Version 2
File size                      : 566 MiB
Duration                       : 1 h 56 min
Overall bit rate               : 681 kb/s
Movie name                     : The Saint 1997 GOPISAHI
Video
Format                         : AVC
Codec ID                       : V_MPEG4/ISO/AVC
Duration                       : 1 h 56 min
Bit rate                       : 500 kb/s
Width                          : 1 280 pixels
Height                         : 544 pixels
Display aspect ratio           : 2.35:1
Frame rate mode                : Constant
Frame rate                     : 23.976 (24000/1001) FPS
Stream size                    : 415 MiB (73%)
Writing library                : x264
Audio #1
Format                         : AAC
Duration                       : 1 h 56 min
Bit rate                       : 86.1 kb/s
Channel(s)                     : 6 channels
Channel positions              : Front: L C R, Side: L R, LFE
Sampling rate                  : 44.1 kHz
Frame rate                     : 43.066 FPS (1024 SPF)
Stream size                    : 71.5 MiB (13%)
Language                       : English
Audio #2
Format                         : AAC
Duration                       : 1 h 56 min
Bit rate                       : 92.4 kb/s
Channel(s)                     : 6 channels
Channel positions              : Front: L C R, Side: L R, LFE
Sampling rate                  : 44.1 kHz
Frame rate                     : 43.066 FPS (1024 SPF)
Compression mode               : Lossy
Stream size                    : 76.7 MiB (14%)
Language                       : Hindi
Text
Language                       : English

Post a Comment

0 Comments