Search

The Skeleton Key 2005 720p Esub BRrip Dual Audio English Hindi Current_HD @ GOPISAHI

Format                               : Matroska
Format version                   : Version 4 / Version 2
File size                            : 810 MiB
Duration                             : 1 h 43 min
Overall bit rate                    : 1 090 kb/s
Movie name                       : The Skeleton Key 2005 YIFY
Encoded date                     : UTC 2017-08-04 11:44:55
Writing application              : mkvmerge v13.0.0 ('The Juggler') 64bit
Video
ID                             : 1
Format                         : AVC
Codec ID                       : V_MPEG4/ISO/AVC
Duration                       : 1 h 43 min
Bit rate                       : 910 kb/s
Width                          : 1 280 pixels
Height                         : 528 pixels
Display aspect ratio           : 2.40:1
Frame rate mode                : Constant
Frame rate                     : 23.976 (24000/1001) FPS
Bits/(Pixel*Frame)             : 0.056
Stream size                    : 677 MiB (83%)
Writing library                : x264 core 125 r2200 999b753
Audio #1
Format                         : AAC
Duration                       : 1 h 43 min
Bit rate                       : 88.7 kb/s
Channel(s)                     : 6 channels
Channel positions              : Front: L C R, Side: L R, LFE
Sampling rate                  : 44.1 kHz
Frame rate                     : 43.066 FPS (1024 SPF)
Stream size                    : 65.9 MiB (8%)
Language                       : English
Audio #2
Format                         : AACC
Duration                       : 1 h 39 min
Bit rate                       : 92.5 kb/s
Channel(s)                     : 6 channels
Channel positions              : Front: L C R, Side: L R, LFE
Sampling rate                  : 44.1 kHz
Frame rate                     : 43.066 FPS (1024 SPF)
Stream size                    : 65.8 MiB (8%)
Language                       : Hindi
Text
Language                       : English