Search

The Smurfs 2011 720p Esub BluRay Dual Audio English Hindi GOPISAHI


Format                         : Matroska
Format version                 : Version 4 / Version 2
File size                      : 788 MiB
Duration                       : 1 h 42 min
Overall bit rate               : 1 071 kb/s
Movie name                     : The Smurfs 2011

Video
Format                         : AVC
Codec ID                       : V_MPEG4/ISO/AVC
Duration                       : 1 h 42 min
Bit rate                       : 887 kb/s
Width                          : 1 280 pixels
Height                         : 720 pixels
Display aspect ratio           : 16:9
Frame rate mode                : Constant
Frame rate                     : 23.976 (23976/1000) FPS
Stream size                    : 653 MiB (83%)
Writing library                : x264 core 112

Audio #1
Format                         : AAC
Duration                       : 1 h 42 min
Bit rate                       : 92.6 kb/s
Channel(s)                     : 6 channels
Channel positions              : Front: L C R, Side: L R, LFE
Sampling rate                  : 44.1 kHz
Frame rate                     : 43.066 FPS (1024 SPF)
Stream size                    : 68.2 MiB (9%)
Language                       : English

Audio #2
ID                             : 4
Format                         : AAC
Duration                       : 1 h 42 min
Bit rate                       : 88.6 kb/s
Channel(s)                     : 6 channels
Channel positions              : Front: L C R, Side: L R, LFE
Sampling rate                  : 44.1 kHz
Frame rate                     : 43.066 FPS (1024 SPF)
Stream size                    : 65.1 MiB (8%)
Language                       : Hindi

Text
Language                       : English
 
 
 

Post a Comment

0 Comments