Search

The Spy Undercover Operation 2013 720p Esub HD Dual Audio Hindi Korean GOPISAHI


File size                      : 655 MiB
Duration                       : 2 h 1 min
Overall bit rate               : 757 kb/s
Movie name                     : The Spy Undercover Operation 2013

Video
Format                         : AVC
Codec ID                       : V_MPEG4/ISO/AVC
Duration                       : 2 h 1 min
Bit rate                       : 600 kb/s
Width                          : 1 280 pixels
Height                         : 544 pixels
Display aspect ratio           : 2.35:1
Frame rate mode                : Constant
Frame rate                     : 23.976 (24000/1001) FPS
Stream size                    : 519 MiB (79%)
Title                          : GOPISAHI
Writing library                : x264 core 155 r2893 b00bcaf

Audio #1
Format                         : AAC
Duration                       : 2 h 1 min
Bit rate                       : 86.4 kb/s
Channel(s)                     : 6 channels
Channel positions              : Front: L C R, Side: L R, LFE
Sampling rate                  : 44.1 kHz
Frame rate                     : 43.066 FPS (1024 SPF)
Stream size                    : 74.8 MiB (11%)
Language                       : Hindi

Audio #2
Format                         : AAC
Duration                       : 2 h 1 min
Bit rate                       : 67.8 kb/s
Channel(s)                     : 6 channels
Channel positions              : Front: L C R, Side: L R, LFE
Sampling rate                  : 44.1 kHz
Frame rate                     : 43.066 FPS (1024 SPF)
Compression mode               : Lossy
Stream size                    : 58.7 MiB (9%)
Language                       : Korean

Text
Language                       : English
 
 

Post a Comment

0 Comments