Search

The Thaw 2009 720p Esub BRRIP Dual Audio English Hindi GOPISAHI

Video
Format                         : AVC
Codec ID                       : V_MPEG4/ISO/AVC
Duration                       : 1 h 33 min
Bit rate                       : 825 kb/s
Width                          : 1 280 pixels
Height                         : 534 pixels
Display aspect ratio           : 2.40:1
Frame rate mode                : Constant
Frame rate                     : 24.000 FPS
Stream size                    : 554 MiB (85%)
Writing library                : x264 core 116 r2074 2641b9e
Audio #1
Format                         : AAC
Duration                       : 1 h 33 min
Bit rate                       : 64.0 kb/s
Channel(s)                     : 2 channels
Channel positions              : Front: L R
Sampling rate                  : 44.1 kHz / 22.05 kHz
Frame rate                     : 21.533 FPS (1024 SPF)
Stream size                    : 43.0 MiB (7%)
Language                       : English
Audio #2
Format                         : AAC
Duration                       : 1 h 33 min
Bit rate                       : 82.3 kb/s
Channel(s)                     : 6 channels
Channel positions              : Front: L C R, Side: L R, LFE
Sampling rate                  : 44.1 kHz
Frame rate                     : 43.066 FPS (1024 SPF)
Stream size                    : 55.3 MiB (8%)
Language                       : Hindi
Text
Duration                       : 1 h 27 min
Stream size                    : 30.2 KiB (0%
Language                       : English

Post a Comment

0 Comments