Search

The Water Diviner 2014 720p Esub BluRay 5.1 Dual Audio English Hindi GOPISAHI


Format                         : Matroska
Format version                 : Version 4 / Version 2
File size                      : 541 MiB
Duration                       : 1 h 51 min
Overall bit rate               : 681 kb/s
Movie name                     : The Water Diviner 2014 WWW. GOPISAHI.PW

Video
ID                             : 1
Format                         : HEVC
Format/Info                    : High Efficiency Video Coding
Format profile                 : [email protected]@Main
Codec ID                       : V_MPEGH/ISO/HEVC
Duration                       : 1 h 51 min
Bit rate                       : 500 kb/s
Width                          : 1 280 pixels
Height                         : 536 pixels
Display aspect ratio           : 2.40:1
Frame rate mode                : Constant
Frame rate                     : 24.000 FPS
Color space                    : YUV
Chroma subsampling             : 4:2:0
Bit depth                      : 8 bits
Bits/(Pixel*Frame)             : 0.030
Stream size                    : 398 MiB (74%)
Title                          : WWW. GOPISAHI.PW
Writing library                : x265 2.1:[Windows][GCC 5.3.1][64 bit] 8bit

Audio #1
Format                         : AAC
Duration                       : 1 h 51 min
Bit rate                       : 86.9 kb/s
Channel(s)                     : 6 channels
Channel positions              : Front: L C R, Side: L R, LFE
Sampling rate                  : 44.1 kHz
Frame rate                     : 43.066 FPS (1024 SPF)
Compression mode               : Lossy
Stream size                    : 69.1 MiB (13%)
Title                          : WWW. GOPISAHI.PW
Language                       : English

Audio #2
Format                         : AAC
Duration                       : 1 h 51 min
Bit rate                       : 90.5 kb/s
Channel(s)                     : 6 channels
Channel positions              : Front: L C R, Side: L R, LFE
Sampling rate                  : 44.1 kHz
Frame rate                     : 43.066 FPS (1024 SPF)
Compression mode               : Lossy
Stream size                    : 72.0 MiB (13%)
Title                          : WWW. GOPISAHI.PW
Language                       : Hindi

Text
Language                       : English


Post a Comment

0 Comments